Recommend
First CAM
Avengers Endgame 2019 480p HDCAM V2 Dual Audio 700MB Hindi-English x264 CineVood ExclusiveAvengers Endgame 2019 720p HDCAM V2 Dual Audio 1.2GB Hindi-English x264 CineVood ExclusiveAvengers Endgame 2019 NEW 720p HDCAM-1XBETI Spit on Your Grave Deja Vu.2019.BDRip.XviD.AC3-EVO

WEB/HDRip
Avengers Endgame 2019 480p HDCAM V2 Dual Audio 700MB Hindi-English x264 CineVood ExclusiveAvengers Endgame 2019 720p HDCAM V2 Dual Audio 1.2GB Hindi-English x264 CineVood ExclusiveAvengers Endgame 2019 NEW 720p HDCAM-1XBETI Spit on Your Grave Deja Vu.2019.BDRip.XviD.AC3-EVO

Bluray/DVDs
Avengers Endgame 2019 480p HDCAM V2 Dual Audio 700MB Hindi-English x264 CineVood ExclusiveAvengers Endgame 2019 720p HDCAM V2 Dual Audio 1.2GB Hindi-English x264 CineVood ExclusiveAvengers Endgame 2019 NEW 720p HDCAM-1XBETI Spit on Your Grave Deja Vu.2019.BDRip.XviD.AC3-EVO

TV
Avengers Endgame 2019 480p HDCAM V2 Dual Audio 700MB Hindi-English x264 CineVood ExclusiveAvengers Endgame 2019 720p HDCAM V2 Dual Audio 1.2GB Hindi-English x264 CineVood ExclusiveAvengers Endgame 2019 NEW 720p HDCAM-1XBETI Spit on Your Grave Deja Vu.2019.BDRip.XviD.AC3-EVO


Torrent Details For "Cold.Pursuit.2019.1080p.KORSUB.HDRip.x264.AAC.LLG"

Torrent details
Cover
Download
Name:
Cold.Pursuit.2019.1080p.KORSUB.HDRip.x264.AAC.LLG
Controls:
Category:
Movies > WEB-HD
Language:
 EnglishEnglish
Total Size:
1.74 GB
Info Hash:
8de1cac5543cefad5c872520d2090e6a9c8ba07d
Added By:
Unknown/NA
Added:
26-04-2019 19:51:39
Views:
91
Health:
Seeders:
54
Leechers:
54
Completed:
90

Movie Information
Title:
Genre:
Action, Crime, Drama, Thriller
Runtime:
119 minutes
Rating:
6.2/10
Votes:
23053
Country:
UK, Norway, Canada, USA, France
Language:
English
Tagline:
Revenge is best served cold.
Plot:
A grieving snowplow driver seeks out revenge against the drug dealers who killed his son. Based on the 2014 Norwegian film 'In Order of Disappearance'.
Cast:
Liam Neeson
Liam Neeson
Nels Coxman
Laura Dern
Laura Dern
Grace Coxman
Micheál Richardson
Micheál Richardson
Kyle Coxman


Description

Quote:



******************************Thumbnail:**********************

 

******************************Screenshots:********************

 Screenshot 1

 Screenshot 2

 Screenshot 3

 Screenshot 4

 Screenshot 5

 Screenshot 6

 Screenshot 7

 Screenshot 8

 Screenshot 9

 Screenshot 0


******************************************************

Cold.Pursuit.2019.1080p.KORSUB.HDRip.x264.AAC.LLG.mp4
Format                                   : MPEG-4
Format profile                           : Base Media
Codec ID                                 : isom (isom/iso2/avc1/mp41)
File size                                : 1.72 GiB
Duration                                 : 1 h 58 min
Overall bit rate mode                    : Variable
Overall bit rate                         : 2 079 kb/s


Video
ID                                       : 1
Format                                   : AVC
Format/Info                              : Advanced Video Codec
Format profile                           : [email protected]
Format settings                          : CABAC / 1 Ref Frames
Format settings, CABAC                   : Yes
Format settings, RefFrames               : 1 frame
Codec ID                                 : avc1
Codec ID/Info                            : Advanced Video Coding
Duration                                 : 1 h 58 min
Bit rate mode                            : Variable
Bit rate                                 : 1 946 kb/s
Maximum bit rate                         : 6 000 kb/s
Width                                    : 1 920 pixels
Height                                   : 800 pixels
Display aspect ratio                     : 2.40:1
Frame rate mode                          : Constant
Frame rate                               : 23.976 (23976/1000) FPS
Color space                              : YUV
Chroma subsampling                       : 4:2:0
Bit depth                                : 8 bits
Scan type                                : Progressive
Bits/(Pixel*Frame)                       : 0.053
Stream size                              : 1.61 GiB (94%)


Audio
ID                                       : 2
Format                                   : AAC LC
Codec ID                                 : mp4a-40-2
Duration                                 : 1 h 58 min
Bit rate mode                            : Constant
Bit rate                                 : 129 kb/s
Channel(s)                               : 2 channels
Channel layout                           : L R
Sampling rate                            : 48.0 kHz
Frame rate                               : 46.875 FPS (1024 SPF)
Compression mode                         : Lossy
Stream size                              : 109 MiB (6%)
Language                                 : English
Default                                  : Yes
Alternate group                          : 1



********************************************************




Comments

No comments still posted

Top
Copyright 2019 FOXTorrents.net -|- Page Generated In 0.530687 secs.
-|- RSS Feed -|- Feed Info